Меню пользователя
Реклама
Лучшие за месяц  ↑↓
    Лучшие аплоадеры фильмов:
  • 1. dilat  (60)
    Лучшие аплоадеры музыки:
  • 1. Nokken  (79)
    Лучшие аплоадеры игр:
  • 1. dilat  (13)
    Лучшие аплоадеры сериалов:
  • 1. Ressa  (47)
    Лучшие блогеры:
  • 1. dark_alien  (+24)
Обсуждают в блогах  ↑↓
Случайные раздачи  ↑↓
Фильмы: Голые новости / Naked news (2007) TVRip Фильмы: Тайны дворцовых переворотов - Фильм 3(Я ИМПЕРАТОР) (2001) DVDRip Фильмы: Глюк / Narco (2004) DVDRip Музыка:  Cafe Del Mar - Aria - The Best Of (2008) MP3 Фильмы: Оправданная жестокость / History of Violence (2005) DVDRip Музыка: Ron Van Den Beuken  -  Collected  (2008) MP3 Музыка: The 69 Eyes - Hollywood Kills (2008) MP3 Музыка: Mythos - Дискография (1996-2006) (2006) MP3 Музыка: OST - Первая Любовь (2009) MP3 Фильмы: Просто добавь воды  / Just Add Water (2007) DVDRip
Статистика
Яндекс.Метрика

Tiesto - In Search Of Sunrise Vol. 7 - Asia [FLAC, 1000 kbs] (2008) FLAC

Примагнититься
проверено: Equiliber
Название:Tiesto
Альбом:In Search Of Sunrise Vol. 7 - Asia [FLAC, 1000 kbs]
Год выхода:2008
Жанр:Trance
Длительность:140 мин.
Рейтинг:
8.875 (8)
CD1
1-01. Banyan Tree - Feel The Sun Rise
1-02. Andy Duguid featuring Leah - Wasted
1-03. King Unique - Yohkoh (King Unique Original Mix)
1-04. Motorcitysoul - Space Katzle (Jerome Sydenham Remix)
1-05. Three Drives - Feel The Rythmn (Ton TB Dub Mix)
1-06. Rachael Starr - To Forever (Moonbeam Remix)
1-07. Jerry Ropero featuring Cozi - The Storm (Inpetto Remix)
1-08. Kamui - Get Lifted
1-09. Cary Brothers - Ride (Tiesto Remix)
1-10. Airbase featuring Floria Ambra - Denial
1-11. Dokmai - Reason To Believe
1-12. Cressida - 6AM (Kyau & Albert Remix)
1-13. Allure featuring Christian Burns - Power Of You
1-14. Clouded Leopard - Hua-Hin
CD2
2-01. Steve Forte Rio featuring JES - Blossom (Lounge Mix)
2-02. Zoo Brazil - Crossroads
2-03. Beltek - Kenta
2-04. Sied van Riel - Rush
2-05. Tiesto - Driving To Heaven (Mat Zo Remix)
2-06. Carl B. - Just A Thought
2-07. Kimito Lopez - Melkweg
2-08. JPL - Whenever I May Find Her (Joni Remix)
2-09. Estiva vs. Marninx - Casa Grande
2-10. Existone - Wounded Soul
2-11. Andre Visior & Kay Stone - Something For Your Mind (Guiseppe Ottaviani Remix)
2-12. Hensha - The Curtain
2-13. DJ Eremit - Tanz Der Seele (YOMC Remix)
2-14. Manilla Rising - Beyond The Stars

Отличная музыка, в отличном качестве, для хорошей акустики =)

Exact Audio Copy V0.99 prebeta 4 from 23. January 2008
EAC extraction logfile from 29. June 2008, 19:13
DJ Tiesto / In Search Of Sunrise 7 Asia (CD 1 of 2)
Used drive : Optiarc DVD RW AD-7170A Adapter: 1 ID: 1
Read mode : Secure
Utilize accurate stream : Yes
Defeat audio cache : Yes
Make use of C2 pointers : No
Read offset correction : 48
Overread into Lead-In and Lead-Out : No
Fill up missing offset samples with silence : Yes
Delete leading and trailing silent blocks : No
Null samples used in CRC calculations : Yes
Used interface : Installed external ASPI interface
Used output format : Internal WAV Routines
Sample format : 44.100 Hz; 16 Bit; Stereo
TOC of the extracted CD
Track | Start | Length | Start sector | End sector
---------------------------------------------------------
1 | 0:00.00 | 2:09.57 | 0 | 9731
2 | 2:09.57 | 4:18.65 | 9732 | 29146
3 | 6:28.47 | 4:24.33 | 29147 | 48979
4 | 10:53.05 | 4:55.15 | 48980 | 71119
5 | 15:48.20 | 5:53.37 | 71120 | 97631
6 | 21:41.57 | 5:08.25 | 97632 | 120756
7 | 26:50.07 | 5:36.45 | 120757 | 146001
8 | 32:26.52 | 5:21.23 | 146002 | 170099
9 | 37:48.00 | 5:06.17 | 170100 | 193066
10 | 42:54.17 | 6:03.40 | 193067 | 220331
11 | 48:57.57 | 6:03.30 | 220332 | 247586
12 | 55:01.12 | 5:05.13 | 247587 | 270474
13 | 60:06.25 | 6:39.17 | 270475 | 300416
14 | 66:45.42 | 2:01.10 | 300417 | 309501
Range status and errors
Selected range
Filename F:In Search of Sunrise 7 Asia FLAC (image+cue)DJ Tiesto - In Search Of Sunrise 7 Asia (CD 1 of 2).wav
Peak level 100.0 %
Range quality 100.0 %
Test CRC 68E27C57
Copy CRC 68E27C57
Copy OK
No errors occurred
End of status report

Exact Audio Copy V0.99 prebeta 4 from 23. January 2008
EAC extraction logfile from 29. June 2008, 19:57
DJ Tiesto / In Search Of Sunrise 7 Asia (CD 2 of 2)
Used drive : Optiarc DVD RW AD-7170A Adapter: 1 ID: 1
Read mode : Secure
Utilize accurate stream : Yes
Defeat audio cache : Yes
Make use of C2 pointers : No
Read offset correction : 48
Overread into Lead-In and Lead-Out : No
Fill up missing offset samples with silence : Yes
Delete leading and trailing silent blocks : No
Null samples used in CRC calculations : Yes
Used interface : Installed external ASPI interface
Used output format : Internal WAV Routines
Sample format : 44.100 Hz; 16 Bit; Stereo
TOC of the extracted CD
Track | Start | Length | Start sector | End sector
---------------------------------------------------------
1 | 0:00.00 | 2:00.50 | 0 | 9049
2 | 2:00.50 | 4:47.15 | 9050 | 30589
3 | 6:47.65 | 5:59.05 | 30590 | 57519
4 | 12:46.70 | 5:00.22 | 57520 | 80041
5 | 17:47.17 | 5:49.33 | 80042 | 106249
6 | 23:36.50 | 6:05.00 | 106250 | 133624
7 | 29:41.50 | 6:09.70 | 133625 | 161369
8 | 35:51.45 | 5:34.02 | 161370 | 186421
9 | 41:25.47 | 5:12.33 | 186422 | 209854
10 | 46:38.05 | 6:31.60 | 209855 | 239239
11 | 53:09.65 | 6:01.57 | 239240 | 266371
12 | 59:11.47 | 6:57.28 | 266372 | 297674
13 | 66:09.00 | 3:49.42 | 297675 | 314891
14 | 69:58.42 | 1:31.70 | 314892 | 321786
Range status and errors
Selected range
Filename F:In Search of Sunrise 7 Asia FLAC (image+cue)DJ Tiesto - In Search Of Sunrise 7 Asia (CD 2 of 2).wav
Peak level 100.0 %
Range quality 100.0 %
Test CRC 5F150888
Copy CRC 5F150888
Copy OK
No errors occurred
End of status report


Для фанатов жанра Trance рекомендую:
http://www.megashara.com/music/176782/va_super_transik_high_season_next_generation.html
Качество:1000 kbs
Формат:FLAC
Размер:0.98 GB
Файлов:12 [Древовидный список] [Линейный список]
Начало раздачи:16 Апреля 2009 в 20:02
Раздает:QWERTYKPOI
Сидов: 0        Личеров: 0        Отзывов: 12

Комментарии (12) Все на одной странице
16 Апреля 2009 в 21:57
Отсутствует   sexflaxe | Участник | Стаж: 9 г. 9 мес. 23 дн.
0
Это чем воспроизводить!? тащусь по этому альбому.... поясните что тут и как??????
16 Апреля 2009 в 23:31
Отсутствует   marazmatik | Модератор | Стаж: 11 г. 3 мес. 26 дн.
0
Битрейт нормально укажите
___________________________________________
..но только не я. Я весел и пьян
Я только сейчас начинаю дышать
17 Апреля 2009 в 00:54
Пользователь удален
0
1k kbs = 1024 kbs =1 mbs

Воспроизводить FLAC мона с помощью AIMP2
17 Апреля 2009 в 10:43
Отсутствует   shytiha | Участник | Стаж: 10 г. 1 день
0
Винамп тоже воспроизводит. Альбом очень классный, один из моих любимых этой серии.
___________________________________________
Только две вещи бесконечны -- Вселенная и человеческая тупость, и я не уверен насчет первой. (с) Альберт Эйнштейн
17 Апреля 2009 в 17:43
Пользователь удален
0
=)

могу еще залить с 1го по 6й санрайсы в таком же качестве.
хтота будет их качать ?
17 Апреля 2009 в 18:47
Отсутствует   sexflaxe | Участник | Стаж: 9 г. 9 мес. 23 дн.
0
ДА!!! Это творение просто нечто!!!! выкладывай все санрайсы!!! я 100% буду качать!!! зарание безкрайне благодарен!!!! И за этот альбомчик огроменное спасибо!!!! качество звука впечатляет!
18 Апреля 2009 в 22:11
Отсутствует   Qwerty013 | Участник | Стаж: 9 г. 5 мес. 2 дн.
0
о спасибо заценим!!!
1 Мая 2009 в 10:08
Отсутствует   dance4life2 | Участник | Стаж: 9 г. 8 мес. 6 дн.
0
Спасибо.
13 Мая 2009 в 13:09
Отсутствует   gera23 | Участник | Стаж: 9 г. 4 мес. 5 дн.
0
А раздаст ктонить это творение!?????????????????
14 Мая 2009 в 21:00
Пользователь удален
0
1-12 Вообще нечто!!!! Могу до бесконечности слушать!!!!
Спасибо!!!! Из души душевно в душу!!!!
15 Июня 2009 в 23:03
Пользователь удален
0
3001fm

Стаж: 39 г., 5 мес. 14 дн.

Рейтинг:
0.03

О_0 это лаг ?
22 Июня 2009 в 08:41
Отсутствует   prospm | Участник | Стаж: 9 г. 2 мес. 10 дн.
0
А уже никто не раздает чтоли????
Чтоб добавить комментарий нужна
 
Опрос  ↑↓
Умеете ли вы обходить блокировки сайтов?
  
  
  
  
 
Loading...
 
Кто на сайте  ↑↓
Сегодня ДР у ...  ↑↓
Реклама
 
Загрузка...